Wykorzystujemy pliki cookies i podobne technologie w celu usprawnienia korzystania z serwisu Chomikuj.pl oraz wyświetlenia reklam dopasowanych do Twoich potrzeb.

Jeśli nie zmienisz ustawień dotyczących cookies w Twojej przeglądarce, wyrażasz zgodę na ich umieszczanie na Twoim komputerze przez administratora serwisu Chomikuj.pl – Kelo Corporation.

W każdej chwili możesz zmienić swoje ustawienia dotyczące cookies w swojej przeglądarce internetowej. Dowiedz się więcej w naszej Polityce Prywatności - http://chomikuj.pl/PolitykaPrywatnosci.aspx.

Jednocześnie informujemy że zmiana ustawień przeglądarki może spowodować ograniczenie korzystania ze strony Chomikuj.pl.

W przypadku braku twojej zgody na akceptację cookies niestety prosimy o opuszczenie serwisu chomikuj.pl.

Wykorzystanie plików cookies przez Zaufanych Partnerów (dostosowanie reklam do Twoich potrzeb, analiza skuteczności działań marketingowych).

Wyrażam sprzeciw na cookies Zaufanych Partnerów
NIE TAK

Wyrażenie sprzeciwu spowoduje, że wyświetlana Ci reklama nie będzie dopasowana do Twoich preferencji, a będzie to reklama wyświetlona przypadkowo.

Istnieje możliwość zmiany ustawień przeglądarki internetowej w sposób uniemożliwiający przechowywanie plików cookies na urządzeniu końcowym. Można również usunąć pliki cookies, dokonując odpowiednich zmian w ustawieniach przeglądarki internetowej.

Pełną informację na ten temat znajdziesz pod adresem http://chomikuj.pl/PolitykaPrywatnosci.aspx.

Nie masz jeszcze własnego chomika? Załóż konto
klopecek1990
  • Prezent Prezent
  • Ulubiony
    Ulubiony
  • Wiadomość Wiadomość

widziany: 25.04.2013 09:26

  • pliki muzyczne
    0
  • pliki wideo
    219
  • obrazy
    3
  • dokumenty
    39

430 plików
272,91 GB

Ukryj opis Rozwiń
  • 9,29 GB
  • 19 lut 13 8:20
Avatar 2009 BluRay 3D HSBS 1080p AC3 INFERNO

obrazek

produkcja: USA gatunek: Sci-Fi
data premiery: 2009-12-25 (Polska) , 2009-12-10 (Świat)

reżyseria James Cameron scenariusz James Cameron zdjęcia Mauro Fiore muzyka James Horner czas trwania: 162 dystrybucja: Imperial - Cinepix

Średnia ocena: Rewelacyjny
9,45/10

głosów: 359

Długo oczekiwany film Jamesa Camerona zrealizowany z wielkim rozmachem porównywalnym do Titanica. Szacowany budżet na poziomie 237 milionów dolarów daje mu trzecie miejsce pod tym względem w historii kina. Avatar został wykonany w dwóch technikach: tradycyjnej 2D i zupełnie nowej technice 3D. Zdjęcia do filmu zostały wykonane w 2007 roku, natomiast na postprodukcję przeznaczono dwa lata.

Avatar opowiada historię sparaliżowanego byłego komandosa, który dostaje szansę odzyskania zdrowego ciała. Musi jednak wziąć udział w specjalnym programie militarnym o nazwie Avatar. W rolach głównych między innymi Sam Worthington, Sigourney Weaver, Michelle Rodriguez.

General
ID : 0 (0x0)
Complete name : D:\jobs\ts\Avatar 2009 BluRay 3D SBS 1080p AC3 INFERNO\Avatar 2009 BluRay3D SBS 1080p AC3 x264 INFERNO.ts
Format : MPEG-TS
File size : 9.29 GiB
Duration : 2h 41mn
Overall bit rate mode : Variable
Overall bit rate : 8 225 Kbps
Maximum Overall bit rate : 48.0 Mbps

Video
ID : 4113 (0x1011)
Menu ID : 1 (0x1)
Format : AVC
Format/Info : Advanced Video Codec
Format profile : High@L4.1
Format settings, CABAC : Yes
Format settings, ReFrames : 2 frames
Format settings, GOP : M=3, N=15
Codec ID : 27
Duration : 2h 41mn
Bit rate mode : Variable
Bit rate : 7 366 Kbps
Maximum bit rate : 11.2 Mbps
Width : 1 920 pixels
Height : 1 080 pixels
Display aspect ratio : 16:9
Frame rate : 23.976 fps
Color space : YUV
Chroma subsampling : 4:2:0
Bit depth : 8 bits
Scan type : Progressive
Bits/(Pixel*Frame) : 0.148
Stream size : 8.32 GiB (90%)

Audio
ID : 4352 (0x1100)
Menu ID : 1 (0x1)
Format : AC-3
Format/Info : Audio Coding 3
Mode extension : CM (complete main)
Codec ID : 129
Duration : 2h 41mn
Bit rate mode : Constant
Bit rate : 448 Kbps
Channel(s) : 6 channels
Channel positions : Front: L C R, Side: L R, LFE
Sampling rate : 48.0 KHz
Bit depth : 16 bits
Compression mode : Lossy
Stream size : 518 MiB (5%)

z chomika azazelangel200azi

  • 150 KB
  • 19 lut 13 8:20

z chomika azazelangel200azi

  • 246 KB
  • 19 lut 13 8:20

z chomika azazelangel200azi

  • Pobierz folder
  • Aby móc przechomikować folder musisz być zalogowanyZachomikuj folder
  • dokumenty
    0
  • obrazy
    2
  • pliki wideo
    0
  • pliki muzyczne
    0

5 plików
9,3 GB




Shadow_Broker

Shadow_Broker napisano 23.03.2013 14:29

zgłoś do usunięcia
rgh

rgh napisano 21.04.2013 07:39

zgłoś do usunięcia

 

ZNAJDZIESZ U MNIE:

- FILMY

- FILMY 3D

- GRY NA PS3

- GRY NA XBOX 360

- GRY NA PC

- SERIALE

- STREFA XXX

 

FREE FILMY- Co kilka dni nowe filmy z free transferem

fasola25

fasola25 napisano 18.07.2013 19:55

zgłoś do usunięcia
bandi94

bandi94 napisano 26.07.2013 15:22

zgłoś do usunięcia
7 Psychopatów , Bezpieczna przystań , Człowiek ze stali Gangster Squad- Pogromcy mafii , Intruz 2013 ,Iron Man 3 Kac Vegas 3 ,Movie 43 ,nieletni - pełnoletni Parker ,Piękne istoty ,SĘP POLSKI 2013, Straszny Film 5 , Szklana pułapka 5 , Szybcy i wściekli 6 Wielki Gatsby
Shadow_Broker

Shadow_Broker napisano 2.08.2013 16:12

zgłoś do usunięcia
Chicior2000

Chicior2000 napisano 3.09.2013 19:35

zgłoś do usunięcia
Chicior2000

Chicior2000 napisano 4.08.2014 12:39

zgłoś do usunięcia

Musisz się zalogować by móc dodawać nowe wiadomości do tego Chomika.

Zgłoś jeśli naruszono regulamin
W ramach Chomikuj.pl stosujemy pliki cookies by umożliwić Ci wygodne korzystanie z serwisu. Jeśli nie zmienisz ustawień dotyczących cookies w Twojej przeglądarce, będą one umieszczane na Twoim komputerze. W każdej chwili możesz zmienić swoje ustawienia. Dowiedz się więcej w naszej Polityce Prywatności