Wykorzystujemy pliki cookies i podobne technologie w celu usprawnienia korzystania z serwisu Chomikuj.pl oraz wyświetlenia reklam dopasowanych do Twoich potrzeb.

Jeśli nie zmienisz ustawień dotyczących cookies w Twojej przeglądarce, wyrażasz zgodę na ich umieszczanie na Twoim komputerze przez administratora serwisu Chomikuj.pl – Kelo Corporation.

W każdej chwili możesz zmienić swoje ustawienia dotyczące cookies w swojej przeglądarce internetowej. Dowiedz się więcej w naszej Polityce Prywatności - http://chomikuj.pl/PolitykaPrywatnosci.aspx.

Jednocześnie informujemy że zmiana ustawień przeglądarki może spowodować ograniczenie korzystania ze strony Chomikuj.pl.

W przypadku braku twojej zgody na akceptację cookies niestety prosimy o opuszczenie serwisu chomikuj.pl.

Wykorzystanie plików cookies przez Zaufanych Partnerów (dostosowanie reklam do Twoich potrzeb, analiza skuteczności działań marketingowych).

Wyrażam sprzeciw na cookies Zaufanych Partnerów
NIE TAK

Wyrażenie sprzeciwu spowoduje, że wyświetlana Ci reklama nie będzie dopasowana do Twoich preferencji, a będzie to reklama wyświetlona przypadkowo.

Istnieje możliwość zmiany ustawień przeglądarki internetowej w sposób uniemożliwiający przechowywanie plików cookies na urządzeniu końcowym. Można również usunąć pliki cookies, dokonując odpowiednich zmian w ustawieniach przeglądarki internetowej.

Pełną informację na ten temat znajdziesz pod adresem http://chomikuj.pl/PolitykaPrywatnosci.aspx.

Nie masz jeszcze własnego chomika? Załóż konto

Avatar 2009 BluRay 3D SBS 1080p AC3 x264 INFERNO.sub

klopecek1990 / Filmy / 3D / Avatar / Avatar 2009 BluRay 3D SBS 1080p AC3 x264 INFERNO.sub
Download: Avatar 2009 BluRay 3D SBS 1080p AC3 x264 INFERNO.sub

9,61 MB

0.0 / 5 (0 głosów)

Komentarze:

Nie ma jeszcze żadnego komentarza. Dodaj go jako pierwszy!

Aby dodawać komentarze musisz się zalogować

Inne pliki do pobrania z tego chomika
Avatar 2009 BluRay 3D HSBS 1080p AC3 INFERNO obrazek produkcja: USA gatunek: Sci-Fi data premiery: 2009-12-25 (Polska) , 2009-12-10 (Świat) reżyseria James Cameron scenariusz James Cameron zdjęcia Mauro Fiore muzyka James Horner czas trwania: 162 dystrybucja: Imperial - Cinepix Średnia ocena: Rewelacyjny 9,45/10 głosów: 359 Długo oczekiwany film Jamesa Camerona zrealizowany z wielkim rozmachem porównywalnym do Titanica. Szacowany budżet na poziomie 237 milionów dolarów daje mu trzecie miejsce pod tym względem w historii kina. Avatar został wykonany w dwóch technikach: tradycyjnej 2D i zupełnie nowej technice 3D. Zdjęcia do filmu zostały wykonane w 2007 roku, natomiast na postprodukcję przeznaczono dwa lata. Avatar opowiada historię sparaliżowanego byłego komandosa, który dostaje szansę odzyskania zdrowego ciała. Musi jednak wziąć udział w specjalnym programie militarnym o nazwie Avatar. W rolach głównych między innymi Sam Worthington, Sigourney Weaver, Michelle Rodriguez. General ID : 0 (0x0) Complete name : D:\jobs\ts\Avatar 2009 BluRay 3D SBS 1080p AC3 INFERNO\Avatar 2009 BluRay3D SBS 1080p AC3 x264 INFERNO.ts Format : MPEG-TS File size : 9.29 GiB Duration : 2h 41mn Overall bit rate mode : Variable Overall bit rate : 8 225 Kbps Maximum Overall bit rate : 48.0 Mbps Video ID : 4113 (0x1011) Menu ID : 1 (0x1) Format : AVC Format/Info : Advanced Video Codec Format profile : High@L4.1 Format settings, CABAC : Yes Format settings, ReFrames : 2 frames Format settings, GOP : M=3, N=15 Codec ID : 27 Duration : 2h 41mn Bit rate mode : Variable Bit rate : 7 366 Kbps Maximum bit rate : 11.2 Mbps Width : 1 920 pixels Height : 1 080 pixels Display aspect ratio : 16:9 Frame rate : 23.976 fps Color space : YUV Chroma subsampling : 4:2:0 Bit depth : 8 bits Scan type : Progressive Bits/(Pixel*Frame) : 0.148 Stream size : 8.32 GiB (90%) Audio ID : 4352 (0x1100) Menu ID : 1 (0x1) Format : AC-3 Format/Info : Audio Coding 3 Mode extension : CM (complete main) Codec ID : 129 Duration : 2h 41mn Bit rate mode : Constant Bit rate : 448 Kbps Channel(s) : 6 channels Channel positions : Front: L C R, Side: L R, LFE Sampling rate : 48.0 KHz Bit depth : 16 bits Compression mode : Lossy Stream size : 518 MiB (5%)
Homerun Battle 2 to gra polegająca na wybijaniu piłki kijem do baseballa poza obszar boiska. Gra posiada ładną grafikę 3D. Wymagania: Android 2.1+
Wersja: v1.0.8 Kategoria: Zręcznościowe Język: English Wymagania: Android 1.6 lub nowszy ULTIMATE 3D strzelanka GALATIC INTER-dla Androida! 2 miejsce na 2011 Najlepsze App Awards kiedykolwiek - gry Arcade Wybrany jako Top gry Android - honorowych wyróżnień The Ultimate między galaktyczny strzelanka w 3D! Z podwójną kontrolą kij, można wysadzić swoich wrogów z każdej strony i kontrolować cel Twojego broni niezależnie. CECHY: Dual Control Stick (multi-touch) Ponad 130 kombinacji upgrade broni 25 + misji z różnymi wrogami Leadersboard i online ranking Zoptymalizowane kontrole prowadzone przez ponownej kalibracji Integracja społeczna sieci
HD GAMES COMPLETE COLLECTION 2012 ANDROID obrazek 9mm HD 1.0.1 Asphalt 6 1.3.3 Asphalt5 3.3.9 Assassin’s Creed 3.7.0 Assassins’ Creed Revelations 1.0.8 Avatar 3.3.3 BackStab HD 1.2.5 Block Breaker 3 1.3.2 Brothers In Arms 2 1.0.4 Dungeon Hunter 31.0.8 Diamond Twister 2 1.0.7 Driver San Francisco 1.1.3 Dungeon Hunter 2 1.0.6 Dungeon Hunter HD 1.0.1 Eternal Legacy 1.0.8 Fantasy Town 1.2.0 Fast & Furious 5 1.0.3 Fishing Kings 3.3.6 Gameloft Live 1.0.2 Gangstar 3.4.7 Gangstar Rio City of Saints 1.1.5 GangstarMV 1.0.3 Greenfarm 1.0.6 GT Racing HD 3.1.8 Hawx HD 1.0.2 Hero Of Sparta 3.4.7 Ice Age Village 1.0.0 Let’s Golf 3 1.0.5 Modern Combat 3 1.1.1 Midnight Bowling 2 3.3.9 Modern Combat 2 HD 1.2.7 N.O.V.A. 2 HD 1.0.3 N.O.V.A. HD 1.0.1 NFL Pro 2012 HD 1.1.0 Order and Chaos HD 1.1.2 Oregon Settler 1.0.4 Oregon Trail HD 1.0.8 Platinum Solitaire3 3.1.4 Platinum Sudoku 1.2.3 Rainbow Six HD 1.0.2 Real Football 2011 HD 1.0.4 Real Soccer 2012 HD 1.0.7 Sacred Odyssey 1.0.1 Sandstorm 3.4.2 Shadow Guardian 1.0.1 Shrek Kart 3.1.6 Six Guns 1.0.3 Spiderman HD 1.0.6 Splinter Cell Conviction HD 1.0.4 Star Battalion 3.1.6 Starfront Collision HD 1.0.7 Texas Hold Em Poker 2 1.0.7 The Settlers HD 1.0.3 Tintin HD 1.1.2 UNO 3.6.1 Where’s Waldo Now 1.0.2
więcej plików z tego folderu...
Zgłoś jeśli naruszono regulamin
W ramach Chomikuj.pl stosujemy pliki cookies by umożliwić Ci wygodne korzystanie z serwisu. Jeśli nie zmienisz ustawień dotyczących cookies w Twojej przeglądarce, będą one umieszczane na Twoim komputerze. W każdej chwili możesz zmienić swoje ustawienia. Dowiedz się więcej w naszej Polityce Prywatności