Nie masz jeszcze własnego chomika? Załóż konto
djsizar
  • Prezent Prezent
  • Ulubiony
    Ulubiony
  • Wiadomość Wiadomość

Kris

widziany: 31.03.2015 21:42

  • pliki muzyczne
    1988
  • pliki wideo
    1663
  • obrazy
    452
  • dokumenty
    623

8759 plików
2059,39 GB

« poprzednia stronanastępna strona »
  • 1,37 GB
  • 27 mar 15 21:47
obrazek
Losy obywatela Jana Bratka, który musi odnaleźć się w kluczowych momentach polskiej historii.

z chomika trekk43

  • 708,8 MB
  • 27 mar 15 21:45
obrazek
Koledzy chcą założyć własny biznes, ale sprytny inwestor niweczy ich plany. Zdesperowani planują porwanie syna przedsiębiorcy, by odzyskać kontrolę nad firmą.

z chomika fajnychomik2015

  • 708,8 MB
  • 27 mar 15 21:45
obrazek
Byt ludzkości na Ziemi dobiega końca wskutek zmian klimatycznych. Grupa naukowców odkrywa tunel czasoprzestrzenny, który umożliwia poszukiwanie nowego domu.

z chomika fajnychomik2015

  • 5,0
  • 350,8 MB
  • 27 mar 15 21:18

WIĘCEJ NOWOŚCI_PREMIERY_PROGRAMY_PC_2015 pod tym linkiem :

LINK : ZAPRASZAM SAMSUNG_3D :)


z chomika SAMSUNG_3D

  • 253,3 MB
  • 20 mar 15 23:37

zachomikowany

  • 483 KB
  • 17 paź 14 12:49

z chomika TAKIJA1

  • 14,7 MB
  • 17 paź 14 12:44

z chomika JediTemple

  • 1,37 GB
  • 17 paź 14 12:37

z chomika lukaszdj1

  • 1,37 GB
  • 17 paź 14 12:37

z chomika lukaszdj1

  • 1,37 GB
  • 17 paź 14 12:37

z chomika lukaszdj1

  • 666,6 MB
  • 17 paź 14 12:27
JEAN MICHAEL JARRE - AERO DTS 5.2JEAN MICHAEL JARRE - AERO
/DVD Audio 5.1 AC3 To DTS/

Koniecznie trzeba posłuchać i mieć tą płytę. JMJ pokazuje po co stworzono format DTS 5.1 i pięć kolumn :)

z chomika cervantez

  • 0,95 GB
  • 17 paź 14 12:26

zachomikowany

  • 213,2 MB
  • 17 paź 14 12:26

zachomikowany

  • 213,2 MB
  • 17 paź 14 12:26

zachomikowany

  • 588,8 MB
  • 17 paź 14 12:26

z chomika jedrula81

  • 289,8 MB
  • 17 paź 14 12:26

zachomikowany

  • 289,8 MB
  • 17 paź 14 12:26

zachomikowany

  • 687,6 MB
  • 17 paź 14 12:25
Remastered Upmix 2010
CD 2
1. Love Kills (Sunshine People Radio Mix)
2. Made In Heaven (Extended Version)
3. Living On My Own (The Egg Mix)
4. Love Kills (Rank 1 Vocal Remix)
5. Mr Bad Guy (Bad Circulation Version)
6. I Was Born To Love You (George Demure Almost Vocal Mix)
7. My Love Is Dangerous (Extended Version)
8. Love Makin' Love (Demo)
9. Love Kills (Pixel82 Mix)
10. I Was Born To Love You (Extended Version)
11. Foolin' Around (Early Version)
12. Living On My Own (Extended Mix)
13. Love Kills (More Oder ReWork By The Glimmers)
14. Your Kind Of Lover (Vocal And Piano Version)
15. Let's Turn It On (Acappella)

MEDIA INFO
General
Complete name The Very Best of Freddie Mercury Solo (2006) CD 2 DTS.5.1
Format : DTS
Format/Info : Digital Theater Systems
File size : 758 MiB
Duration : 1h 15mn
Overall bit rate : 1 411.2 Kbps

Audio
Format : DTS
Format/Info : Digital Theater Systems
Muxing mode : LE / 14
Duration : 1h 15mn
Bit rate mode : Constant
Bit rate : 1 411.2 Kbps
Channel(s) : 6 channels
Channel positions : Front: L C R, Side: L R, LFE
Sampling rate : 44.1 KHz
Bit depth : 24 bits
Compression mode : Lossy
Stream size : 758 MiB (100%)

z chomika analyser_64

  • 501,8 MB
  • 17 paź 14 12:25
Remastered Upmix 2010
Prologue – 1:16
Twilight – 3:42
Yours Truly, 2095 – 3:11
Ticket to the Moon – 4:07
The Way Life's Meant To Be – 3:48
Another Heart Breaks – 4:38
Rain Is Falling – 3:55
From The End Of The World – 3:16
The Lights Go Down – 3:33
Here Is The News – 3:50
21st Century Man – 4:03
Hold On Tight – 3:18
Epilogue – 1:31

Dodatkowe utwory na wydaniu z 2001 roku:

The Bouncer – 3:14
When Time Stood Still – 3:33
Julie Don't Live Here – 3:42

MEDIA INFO
General
Complete name : Electric Light Orchestra - Time - DTS 5.1.bin
Format : DTS
Format/Info : Digital Theater Systems
File size : 549 MiB
Duration : 54mn 21s
Overall bit rate : 1 411.2 Kbps

Audio
Format : DTS
Format/Info : Digital Theater Systems
Muxing mode : LE / 14
Duration : 54mn 21s
Bit rate mode : Constant
Bit rate : 1 411.2 Kbps
Channel(s) : 6 channels
Channel positions : Front: L C R, Side: L R, LFE
Sampling rate : 44.1 KHz
Bit depth : 24 bits
Compression mode : Lossy
Stream size : 549 MiB (100%)

z chomika analyser_64

  • 466,7 MB
  • 17 paź 14 12:25
Remastered Upmix 2011
"Secret Messages" – 4:44
"Loser Gone Wild" – 5:27
"Bluebird" – 4:13
"Take Me On and On" – 4:57
"Time After Time" – 4:01 (utwór ten nie znalazł się na płycie winylowej)
"Four Little Diamonds" – 4:05
"Stranger" – 4:27
"Danger Ahead" – 3:52
"Letter from Spain" – 2:51
"Train of Gold" – 4:20
"Rock'n'Roll Is King" – 3:49

MEDIA INFO
Pełna ścieżka : Electric Light Orchestra - Secret Messeges - DTS 5.1.bin
Format : DTS
Format/Informacja : Digital Theater Systems
Rozmiar pliku : 467 MB
Czas trwania : 46 min.
Całkowita przepływność bitów : 1.411,2 Kb/s

Audio
Format : DTS
Format/Informacja : Digital Theater Systems
Tryb multipleksowania : LE / 14
Czas trwania : 46 min.
Rodzaj przepływności : Stała
Przepływność bitów : 1.411,2 Kb/s
Kanały : 6 kanałów
Rozmieszczenie kanałów : Front: L C R, Side: L R, LFE
Częstotliwość próbkowania : 44,1 KHz
BitDepth/String : 24 bity
Rozmiar strumienia : 467 MB

z chomika analyser_64

  • 396,2 MB
  • 17 paź 14 12:24
Remastered Upmix 2010
"Shine a Little Love" - 4:43
"Confusion" - 3:42
"Need Her Love" - 5:11
"The Diary of Horace Wimp" - 4:17
"Last Train to London" - 4:32
"Midnight Blue" - 4:19
"On the Run" - 3:55
"Wishing" - 4:13
"Don't Bring Me Down" - 4:02

MEDIA INFO
Pełna ścieżka : Electric Light Orchestra - Discovery - DTS 5.1.bin
Format : DTS
Format/Informacja : Digital Theater Systems
Rozmiar pliku : 396 MB
Czas trwania : 39 min.
Całkowita przepływność bitów : 1.411,2 Kb/s

Audio
Format : DTS
Format/Informacja : Digital Theater Systems
Tryb multipleksowania : LE / 14
Czas trwania : 39 min.
Rodzaj przepływności : Stała
Przepływność bitów : 1.411,2 Kb/s
Kanały : 6 kanałów
Rozmieszczenie kanałów : Front: L C R, Side: L R, LFE
Częstotliwość próbkowania : 44,1 KHz
BitDepth/String : 24 bity
Rozmiar strumienia : 396 MB

z chomika analyser_64

  • 563,3 MB
  • 17 paź 14 12:24

zachomikowany

  • 731,6 MB
  • 17 paź 14 12:24
obrazekDIRE STRAITS - Sultans of Swing / The Very Best

z chomika cervantez

  • 416,4 MB
  • 17 paź 14 12:24
obrazekDIRE STRAITS - Love Over Gold

z chomika cervantez

« poprzednia stronanastępna strona »
  • Odtwórz folderOdtwórz folder
  • Pobierz folder
  • Aby móc przechomikować folder musisz być zalogowanyZachomikuj folder
  • dokumenty
    22
  • obrazy
    5
  • pliki wideo
    79
  • pliki muzyczne
    31

423 plików
140,67 GB

MexoDaniel

MexoDaniel napisano 15.11.2014 22:40

zgłoś do usunięcia
Qlimax2013

Qlimax2013 napisano 18.11.2014 20:41

zgłoś do usunięcia
Baner.gif
Ras-Tafari

Ras-Tafari napisano 19.11.2014 20:44

zgłoś do usunięcia
.

Chętnych dos trefy VIP prosze o kontakt --->> (P.R.).

sixxx_00

sixxx_00 napisano 7.12.2014 11:57

zgłoś do usunięcia
beautiful.anya

beautiful.anya napisano 9.12.2014 08:15

zgłoś do usunięcia
Zapraszam na 1000 gb free na nowości filmowe Sobota 13.12.2014 godz.20
FILMY-LEKTOR-NAPISY-PL

FILMY-LEKTOR-NAPISY-PL napisano 18.12.2014 15:50

zgłoś do usunięcia
Zapraszam

chomik.09 napisano 26.12.2014 21:52

zgłoś do usunięcia
FREE na filmy zapraszam TERAZ !!!
kukunda

kukunda napisano 25.01.2015 00:36

zgłoś do usunięcia
ZAPRASZAM PO DISCO POLO....

Musisz się zalogować by móc dodawać nowe wiadomości do tego Chomika.

Zgłoś jeśli naruszono regulamin
W ramach Chomikuj.pl stosujemy pliki cookies by umożliwić Ci wygodne korzystanie z serwisu. Jeśli nie zmienisz ustawień dotyczących cookies w Twojej przeglądarce, będą one umieszczane na Twoim komputerze. W każdej chwili możesz zmienić swoje ustawienia. Dowiedz się więcej w naszej Polityce Prywatności