Wykorzystujemy pliki cookies i podobne technologie w celu usprawnienia korzystania z serwisu Chomikuj.pl oraz wyświetlenia reklam dopasowanych do Twoich potrzeb.

Jeśli nie zmienisz ustawień dotyczących cookies w Twojej przeglądarce, wyrażasz zgodę na ich umieszczanie na Twoim komputerze przez administratora serwisu Chomikuj.pl – Kelo Corporation.

W każdej chwili możesz zmienić swoje ustawienia dotyczące cookies w swojej przeglądarce internetowej. Dowiedz się więcej w naszej Polityce Prywatności - http://chomikuj.pl/PolitykaPrywatnosci.aspx.

Jednocześnie informujemy że zmiana ustawień przeglądarki może spowodować ograniczenie korzystania ze strony Chomikuj.pl.

W przypadku braku twojej zgody na akceptację cookies niestety prosimy o opuszczenie serwisu chomikuj.pl.

Wykorzystanie plików cookies przez Zaufanych Partnerów (dostosowanie reklam do Twoich potrzeb, analiza skuteczności działań marketingowych).

Wyrażam sprzeciw na cookies Zaufanych Partnerów
NIE TAK

Wyrażenie sprzeciwu spowoduje, że wyświetlana Ci reklama nie będzie dopasowana do Twoich preferencji, a będzie to reklama wyświetlona przypadkowo.

Istnieje możliwość zmiany ustawień przeglądarki internetowej w sposób uniemożliwiający przechowywanie plików cookies na urządzeniu końcowym. Można również usunąć pliki cookies, dokonując odpowiednich zmian w ustawieniach przeglądarki internetowej.

Pełną informację na ten temat znajdziesz pod adresem http://chomikuj.pl/PolitykaPrywatnosci.aspx.

Nie masz jeszcze własnego chomika? Załóż konto
dariuszpod
  • Prezent Prezent
  • Ulubiony
    Ulubiony
  • Wiadomość Wiadomość

Darek

widziany: 26.07.2020 09:28

  • pliki muzyczne
    138
  • pliki wideo
    28
  • obrazy
    65
  • dokumenty
    4

442 plików
55,92 GB

  • 365,5 MB
  • 7 paź 18 18:29
Format : MPEG-4
Format profile : Base Media
Codec ID : isom (isom/iso2/avc1/mp41)
File size : 366 MiB
Duration : 43 min 36 s
Overall bit rate : 1 172 kb/s
Writing application : Lavf57.71.100

Video
ID : 1
Format : AVC
Format/Info : Advanced Video Codec
Format profile : High@L3.1
Format settings : CABAC / 4 Ref Frames
Format settings, CABAC : Yes
Format settings, ReFrames : 4 frames
Codec ID : avc1
Codec ID/Info : Advanced Video Coding
Duration : 43 min 36 s
Bit rate : 975 kb/s
Width : 960 pixels
Height : 544 pixels
Display aspect ratio : 16:9
Frame rate mode : Variable
Frame rate : 25.000 FPS
Minimum frame rate : 2.778 FPS
Maximum frame rate : 25.000 FPS
Color space : YUV
Chroma subsampling : 4:2:0
Bit depth : 8 bits
Scan type : Progressive
Bits/(Pixel*Frame) : 0.075
Stream size : 304 MiB (83%)

Audio
ID : 2
Format : MPEG Audio
Format version : Version 1
Format profile : Layer 3
Codec ID : mp4a-6B
Duration : 43 min 36 s
Bit rate mode : Constant
Bit rate : 192 kb/s
Channel(s) : 2 channels
Sampling rate : 48.0 kHz
Compression mode : Lossy
Stream size : 59.9 MiB (16%)
Language : unk
Default : Yes
Alternate group : 1
  • Pobierz folder
  • Aby móc przechomikować folder musisz być zalogowanyZachomikuj folder
  • dokumenty
    0
  • obrazy
    0
  • pliki wideo
    1
  • pliki muzyczne
    0

1 plików
365,51 MB




nasior

nasior napisano 11.07.2014 00:21

zgłoś do usunięcia
dodaje. napewno mi się coś kiedyś przyda

multiplex napisano 9.03.2015 13:55

zgłoś do usunięcia
potrzebuję dyskietki startowej z win.milenium z graficznym formatem i formatem NTFS,nie ma tej opcji w 98.
pinoter58

pinoter58 napisano 20.03.2016 14:10

zgłoś do usunięcia
dzięki
Minecraft_blow-1999

Minecraft_blow-1999 napisano 9.05.2016 16:41

zgłoś do usunięcia
Lol na virtualbox wymiata

Musisz się zalogować by móc dodawać nowe wiadomości do tego Chomika.

Zaprzyjaźnione i polecane chomiki (7)Zaprzyjaźnione i polecane chomiki (7)
Zgłoś jeśli naruszono regulamin
W ramach Chomikuj.pl stosujemy pliki cookies by umożliwić Ci wygodne korzystanie z serwisu. Jeśli nie zmienisz ustawień dotyczących cookies w Twojej przeglądarce, będą one umieszczane na Twoim komputerze. W każdej chwili możesz zmienić swoje ustawienia. Dowiedz się więcej w naszej Polityce Prywatności