Wykorzystujemy pliki cookies i podobne technologie w celu usprawnienia korzystania z serwisu Chomikuj.pl oraz wyświetlenia reklam dopasowanych do Twoich potrzeb.

Jeśli nie zmienisz ustawień dotyczących cookies w Twojej przeglądarce, wyrażasz zgodę na ich umieszczanie na Twoim komputerze przez administratora serwisu Chomikuj.pl – Kelo Corporation.

W każdej chwili możesz zmienić swoje ustawienia dotyczące cookies w swojej przeglądarce internetowej. Dowiedz się więcej w naszej Polityce Prywatności - http://chomikuj.pl/PolitykaPrywatnosci.aspx.

Jednocześnie informujemy że zmiana ustawień przeglądarki może spowodować ograniczenie korzystania ze strony Chomikuj.pl.

W przypadku braku twojej zgody na akceptację cookies niestety prosimy o opuszczenie serwisu chomikuj.pl.

Wykorzystanie plików cookies przez Zaufanych Partnerów (dostosowanie reklam do Twoich potrzeb, analiza skuteczności działań marketingowych).

Wyrażam sprzeciw na cookies Zaufanych Partnerów
NIE TAK

Wyrażenie sprzeciwu spowoduje, że wyświetlana Ci reklama nie będzie dopasowana do Twoich preferencji, a będzie to reklama wyświetlona przypadkowo.

Istnieje możliwość zmiany ustawień przeglądarki internetowej w sposób uniemożliwiający przechowywanie plików cookies na urządzeniu końcowym. Można również usunąć pliki cookies, dokonując odpowiednich zmian w ustawieniach przeglądarki internetowej.

Pełną informację na ten temat znajdziesz pod adresem http://chomikuj.pl/PolitykaPrywatnosci.aspx.

Nie masz jeszcze własnego chomika? Załóż konto
Folder z materiałami dla osób pełnoletnich
+18 Ten folder Chomika zawiera materiały, które mogą być oglądane tylko przez osoby pełnoletnie.

Czy chcesz zobaczyć zawartość tego folderu?
Zaloguj się jeśli masz już konto.
robertrzoczek
  • Prezent Prezent
  • Ulubiony
    Ulubiony
  • Wiadomość Wiadomość

Mężczyzna robert

widziany: 7.09.2021 12:28

  • pliki muzyczne
    0
  • pliki wideo
    3422
  • obrazy
    59
  • dokumenty
    3

3488 plików
2326,41 GB

« poprzednia stronanastępna strona »
  • 1,29 GB
  • 26 paź 15 12:32

z chomika mineral44

  • 1,33 GB
  • 26 paź 15 12:32

z chomika mineral44

  • 1,23 GB
  • 26 paź 15 12:32
Fotoszok.pl

z chomika mineral44

  • 1,31 GB
  • 26 paź 15 12:32

z chomika mineral44

  • 698,9 MB
  • 26 paź 15 12:32

z chomika ErotycznySen

  • 699,0 MB
  • 26 paź 15 12:32

z chomika ErotycznySen

  • 697,2 MB
  • 26 paź 15 12:32

z chomika pornografium

  • 698,2 MB
  • 26 paź 15 12:32

z chomika pornografium

  • 118,1 MB
  • 26 paź 15 12:32

zachomikowany

  • 88,8 MB
  • 26 paź 15 12:32

zachomikowany

  • 494,6 MB
  • 26 paź 15 12:32
sierra, diana devoe, chocolate, monique, frankie larue

z chomika BLACHA301181

  • 689,4 MB
  • 26 paź 15 12:32
(Caramel, Dianna Devoe, Vanessa Blue, Ice Deangelo, Chloe, Angel, Africa Sexxx, Kitten)

z chomika perlonosnik

  • 694,8 MB
  • 26 paź 15 12:32

z chomika Boulder

  • 699,9 MB
  • 26 paź 15 12:32

z chomika Boulder

  • 699,6 MB
  • 26 paź 15 12:32
(2005) (Ayana Angel, Skyy Black, Sydnee Capri, Beauty, Exotica, Cha

z chomika frugo343

  • 692,4 MB
  • 26 paź 15 12:32

z chomika frugo343

  • 697,8 MB
  • 26 paź 15 12:32

z chomika avatar2010wp

  • 699,3 MB
  • 26 paź 15 12:32

z chomika NEWBUD

  • 692,3 MB
  • 26 paź 15 12:32

zachomikowany

  • 699,4 MB
  • 26 paź 15 12:32

z chomika mercedes33

  • 309,6 MB
  • 26 paź 15 12:32
Format : RealMedia
File size : 310 MiB
Duration : 1h 17mn
Overall bit rate : 552 Kbps
Performer : EDiFiDo
Copyright : EDiFiDo

Video
ID : 1
Format : RealVideo 4
Codec ID : RV40
Codec ID/Info : Based on AVC (H.264), Real Player 9
Duration : 1h 17mn
Bit rate : 487 Kbps
Width : 592 pixels
Height : 320 pixels
Display aspect ratio : 1.850
Frame rate : 29.970 fps
Bits/(Pixel*Frame) : 0.086
Stream size : 269 MiB (87%)

Audio
ID : 0
Format : Cooker
Codec ID : cook
Codec ID/Info : Based on G.722.1, Real Player 6
Duration : 1h 17mn
Bit rate : 64.1 Kbps
Channel(s) : 2 channels
Sampling rate : 44.1 KHz
Bit depth : 16 bits
Stream size : 35.4 MiB (11%)

z chomika edifido

  • 362,4 MB
  • 26 paź 15 12:32
Format : RealMedia
File size : 362 MiB
Duration : 1h 30mn
Overall bit rate : 549 Kbps
Performer : EDiFiDo
Copyright : EDiFiDo

Video
ID : 1
Format : RealVideo 4
Codec ID : RV40
Codec ID/Info : Based on AVC (H.264), Real Player 9
Duration : 1h 30mn
Bit rate : 485 Kbps
Width : 592 pixels
Height : 320 pixels
Display aspect ratio : 1.850
Frame rate : 29.970 fps
Bits/(Pixel*Frame) : 0.085
Stream size : 315 MiB (87%)

Audio
ID : 0
Format : Cooker
Codec ID : cook
Codec ID/Info : Based on G.722.1, Real Player 6
Duration : 1h 30mn
Bit rate : 64.1 Kbps
Channel(s) : 2 channels
Sampling rate : 44.1 KHz
Bit depth : 16 bits
Stream size : 41.6 MiB (11%)

z chomika edifido

  • 194,8 MB
  • 26 paź 15 12:32

z chomika BLACHA301181

  • 698,5 MB
  • 26 paź 15 12:32

zachomikowany

  • 693,8 MB
  • 26 paź 15 12:32

zachomikowany

  • 694,6 MB
  • 26 paź 15 12:32

zachomikowany

  • 694,0 MB
  • 26 paź 15 12:32

z chomika shark_attack

  • 696,7 MB
  • 26 paź 15 12:32

z chomika BLACHA301181

  • 699,4 MB
  • 26 paź 15 12:32

z chomika BLACHA301181

« poprzednia stronanastępna strona »
  • Pobierz folder
  • Aby móc przechomikować folder musisz być zalogowanyZachomikuj folder
  • dokumenty
    0
  • obrazy
    0
  • pliki wideo
    160
  • pliki muzyczne
    0

160 plików
107,91 GB




perelka1102

perelka1102 napisano 1.02.2013 17:56

zgłoś do usunięcia
obrazek Zapraszam free pobieranie

Musisz się zalogować by móc dodawać nowe wiadomości do tego Chomika.

Zaprzyjaźnione i polecane chomiki (41)Zaprzyjaźnione i polecane chomiki (41)
« poprzednia stronanastępna strona »
Zgłoś jeśli naruszono regulamin
W ramach Chomikuj.pl stosujemy pliki cookies by umożliwić Ci wygodne korzystanie z serwisu. Jeśli nie zmienisz ustawień dotyczących cookies w Twojej przeglądarce, będą one umieszczane na Twoim komputerze. W każdej chwili możesz zmienić swoje ustawienia. Dowiedz się więcej w naszej Polityce Prywatności