Nie masz jeszcze własnego chomika? Załóż konto
wyspa112
  • Prezent Prezent
  • Ulubiony
    Ulubiony
  • Wiadomość Wiadomość

Mężczyzna ....

widziany: dzisiaj o 10:39

  • pliki muzyczne
    1
  • pliki wideo
    1438
  • obrazy
    141
  • dokumenty
    619

3012 plików
1099,3 GB

« poprzednia stronanastępna strona »
  • 5.0
  • 449,9 MB
  • 19 lut 17 15:47


Tabu / Taboo (2017) sezon 1
LEKTOR PL


z chomika Pijars__

  • 449,9 MB
  • 19 lut 17 15:47


Tabu / Taboo (2017) sezon 1
LEKTOR PL


z chomika Pijars__

  • 1,9 MB
  • 14 lut 17 18:39

z chomika malyjasiu

  • 1,5 MB
  • 14 lut 17 18:38

z chomika kptjsparrow

  • 1,0 MB
  • 14 lut 17 18:38

z chomika sakiko3101

  • 1,0 MB
  • 14 lut 17 18:37

z chomika kptjsparrow

  • 1,8 MB
  • 14 lut 17 18:37

z chomika kptjsparrow

  • 1,8 MB
  • 14 lut 17 18:37

z chomika yuuki93

  • 1,1 MB
  • 14 lut 17 18:37

z chomika yuuki93

  • 23,0 MB
  • 12 lut 17 23:10

z chomika KonDonekPL

  • 5.0
  • 16,4 MB
  • 12 lut 17 23:09

z chomika Fisherekgda

  • 22,9 MB
  • 12 lut 17 23:09

z chomika KonDonekPL

  • 24,0 MB
  • 12 lut 17 23:09

z chomika Poother

  • 22,7 MB
  • 12 lut 17 23:08

z chomika KonDonekPL

  • 16,4 MB
  • 12 lut 17 23:08

z chomika netu123

  • 500,1 MB
  • 12 lut 17 12:41
obrazek
6 odcinek 1 sezonu miniserialu
TABOO - TABU
obrazek

z chomika waldijo40

  • 187,7 MB
  • 12 lut 17 12:41


Tabu / Taboo (2017) sezon 1
LEKTOR PL


z chomika Pijars__

  • 5.0
  • 1,3 MB
  • 7 lut 17 22:12
obrazek

-Mare Molly Barrow, urodzona siedemnastego listopada 302 roku Nowej Ery, córka Daniela i Ruth Barrowów – recytuje z pamięci Tyberiasz, streszczając moje życie. – Nie masz zawodu i w dniu następnych urodzin masz wstąpić do wojska. Chodzisz do szkoły nieregularnie, osiągasz słabe wyniki i masz na swoim koncie wykroczenia, za które w większości miast trafiłabyś do więzienia. Kradzieże, przemyt, stawianie oporu podczas aresztowania to zaledwie początek listy. Ogólnie rzecz biorąc, jesteś biedna, nieokrzesana, niemoralna, mało inteligentna, zgorzkniała, uparta i przynosisz hańbę swojej wiosce i królestwu. […]

– A mimo to jest w tobie coś więcej. – Król wstaje, ja zaś przyglądam się z bliska jego koronie. Jej końce są nieprzeciętnie ostre. Jak sztylety. – Coś, czego nie mogę pojąć. Jesteś jednocześnie Czerwoną i Srebrną. Ta osobliwość pociąga za sobą potworne konsekwencje, których nie jesteś w stanie zrozumieć. Co zatem mam z tobą począć?

z chomika ewka3121

  • 5.0
  • 1,5 MB
  • 7 lut 17 22:06

zachomikowany

  • 332,7 MB
  • 27 sty 17 22:22

z chomika amaleszyk

  • 700,1 MB
  • 24 sty 17 17:46
obrazek Dramat, Historyczny, Thriller

The Countess to opowieść o historii węgierskiej hrabiny Elżbiety Batory. Film ukazuje tragiczne losy krewnej Stefana Batorego. Elżbieta przeszła do historii jako krwawa morderczyni, która zamordowała setki młodych dziewic, gdyż wierzyła że dzięki ich krwi, może pozostać na zawsze młoda i piękna.

z chomika technik2002

  • 357,2 MB
  • 23 sty 17 19:57


obrazek





Noc oczyszczenia - Czas wyboru (The Purge - Election Year) [2016] [BDRip.Xvid-KiT] [Lektor PL]


reżyseria: James DeMonaco
scenariusz: James DeMonaco
gatunek: Thriller, Akcja
produkcja: Francja, USA
premiera: 8 lipca 2016 (Polska) 29 czerwca 2016 (świat)


▬▬▬▬▬▬▬▬▬▬▬▬▬▬▬▬▬▬▬▬▬▬▬▬▬▬▬▬▬▬▬▬▬▬▬▬▬▬▬▬▬▬▬▬▬▬▬▬▬


Przed nami kolejne 12 godzin, podczas których może zdarzyć się wszystko. Nie ma reguł, nikt nie jest bezpieczny. Raz w roku świat ogarnia całkowita anarchia. Legalne jest każde przestępstwo. Na ten dzień czekają mordercy i zwyrodnialcy. Wiedzą, że tego dnia mogą zrobić wszystko. I nie cofną się przed najbardziej wymyślnymi torturami.


▬▬▬▬▬▬▬▬▬▬▬▬▬▬▬▬▬▬▬▬▬▬▬▬▬▬▬▬▬▬▬▬▬▬▬▬▬▬▬▬▬▬▬▬▬▬▬▬▬



### Dane techniczne ###
Format : RealMedia
File size : 357 MiB
Duration : 1 h 48 min
Overall bit rate : 446 kb/s

Video
ID : 1
Format : RealVideo 4
Codec ID : RV40
Codec ID/Info : Based on AVC (H.264), Real Player 9
Bit rate : 318 kb/s
Width : 640 pixels
Height : 272 pixels
Stream size : 248 MiB (69%)

Audio
ID : 0
Format : AAC
Format/Info : Advanced Audio Codec
Bit rate : 128 kb/s
Channel(s) : 2 channels
Sampling rate : 44.1 kHz
Stream size : 99.6 MiB (28%)


z chomika Sony_Xperia

  • 346,8 MB
  • 23 sty 17 19:54

z chomika lelien

  • 1,39 GB
  • 19 sty 17 11:57


obrazek





Inferno [2016] [BRRip.XViD.AC3-ETRG] [Napisy PL]


reżyseria: Ron Howard
scenariusz: David Koepp
gatunek: Thriller
produkcja: Japonia, Turcja, USA, Węgry
premiera: 14 października 2016 (Polska) 12 października 2016 (świat)


▬▬▬▬▬▬▬▬▬▬▬▬▬▬▬▬▬▬▬▬▬▬▬▬▬▬▬▬▬▬▬▬▬▬▬▬▬▬▬▬▬▬▬▬▬▬▬▬▬


Supertrio: Tom Hanks, Ron Howard i Dan Brown przedstawia ekranizację najlepiej sprzedającej się książki 2013 roku - "Inferno". Światowej sławy profesor w dziedzinie symboliki Robert Langdon (dwukrotny laureat Oscara Tom Hanks) śladami poematu Dantego usiłuje rozwikłać zagadkę symbolu, który znajduje w marynarce, kiedy budzi się - pogrążony w amnezji - w jednym z włoskich szpitali. Będzie to najtrudniejsze zadanie w karierze Langdona, na którego zewsząd czeka niebezpieczeństwo.


▬▬▬▬▬▬▬▬▬▬▬▬▬▬▬▬▬▬▬▬▬▬▬▬▬▬▬▬▬▬▬▬▬▬▬▬▬▬▬▬▬▬▬▬▬▬▬▬▬



### Dane techniczne ###
Rozmiar pliku: 1.389 GiB (1491582454 bajtów)
Czas trwania: 02:01:35.246 (7295246 ms)
Ogólne bitrate pliku: 1 636 Kbps
Format: AVI

Video FPS: 23.976
Video kodek: XviD
Video bitrate: 1 370 Kbps
Video rozdzielczość: 720x384
Video rozmiar: 1.16 GiB (84%)
Video proporcje obrazu: 1.875

Audio format: AC-3
Audio format wynik: Audio Coding 3
Audio bitrate: 256 Kbps
Audio liczba kanałów: 6
Audio sampling rate: 48.0 KHz
Audio resolution: 16 bits
Audio rozmiar: 223 MiB (16%)


z chomika Sony_Xperia

« poprzednia stronanastępna strona »
  • Odtwórz folderOdtwórz folder
  • Pobierz folder
  • Aby móc przechomikować folder musisz być zalogowanyZachomikuj folder
  • dokumenty
    76
  • obrazy
    0
  • pliki wideo
    1063
  • pliki muzyczne
    1

1164 plików
521,09 GB

dariusz.marcinkowski

dariusz.marcinkowski napisano 29.12.2016 16:29

zgłoś do usunięcia
zapraszam do siebie
sevenmati

sevenmati napisano 11.01.2017 18:45

zgłoś do usunięcia
testeracc12

testeracc12 napisano 12.01.2017 21:22

zgłoś do usunięcia

Cześć wyspa112! Zobacz co dzisiaj znalazłam za cudo. Podziele się tym, bo wiem że Twoim chomiczkom też się przyda)

Chomikuj Generator 2017 chomikuj.polskie-hacki24.pl

Transferipkt

marcin0d

marcin0d napisano 17.01.2017 11:23

zgłoś do usunięcia
zapraszam
Tiili

Tiili napisano 18.01.2017 20:09

zgłoś do usunięcia
Witam, pozdrawiam i zapraszam do mnie Filmy, ciekawe Filmy Dokumentalne, Seriale, TV Show, Książki, Artykuły, Teledyski, Tapety, Emotki i wiele innych. obrazek
anya-film-2016

anya-film-2016 napisano 18.01.2017 20:25

zgłoś do usunięcia
AZAZEL-2000-FILMY

AZAZEL-2000-FILMY napisano 20.02.2017 16:48

zgłoś do usunięcia
.

.

Musisz się zalogować by móc dodawać nowe wiadomości do tego Chomika.

Zgłoś jeśli naruszono regulamin
W ramach Chomikuj.pl stosujemy pliki cookies by umożliwić Ci wygodne korzystanie z serwisu. Jeśli nie zmienisz ustawień dotyczących cookies w Twojej przeglądarce, będą one umieszczane na Twoim komputerze. W każdej chwili możesz zmienić swoje ustawienia. Dowiedz się więcej w naszej Polityce Prywatności