Nie masz jeszcze własnego chomika? Załóż konto
sokol_wojtek1
  • Prezent Prezent
  • Ulubiony
    Ulubiony
  • Wiadomość Wiadomość

Mężczyzna Wojciech

widziany: 19.01.2018 15:23

  • pliki muzyczne
    997
  • pliki wideo
    1201
  • obrazy
    1403
  • dokumenty
    124

3831 plików
675,1 GB

Ukryj opis
Pokémon Indigo League

Sezon obejmuje podróż przez cały regon Kanto. Ash zdobywa osiem odznak i bierze udział w Lidze Pokémon, kończąc ją w pierwszej szesnastce.

Pokémon Indigo League


Odcinek 17 zawiera dwie polskojęzyczne ścieżki audio (z narratorem czytającym kwestie Pokemonów i bez) i dwie ścieżki napisów.

Przykładowy plik:


Input #0, matroska, from '[PPL] Pokemon 01 'Pokemon I Choose You!' [EN+PL] [R1-Yauncle&AtoMan].mkv':
Duration: 00:21:41.46, start: 0.000000, bitrate: N/A
Stream #0.0: Video: h264, yuv420p, 640x480, PAR 1:1 DAR 4:3, 23.98 tbr, 1k tbn, 47.95 tbc
Stream #0.1(eng): Audio: aac, 48000 Hz, stereo, s16
Stream #0.2(pol): Audio: vorbis, 48000 Hz, stereo, s16

Absolutny zakaz udostępniania plików (zarówno linków, jak i reuploadu czy w formie przerobionej) na innych stronach i forach!


W tym miejscu chciałbym wyrazić podziękowania dla wszystkich, którzy przez lata dokładali swoje cegiełki do tego, aby ten projekt mógł powstać: m.in. Pokemaniac (aka Otoyol), Deoxys, Kseroboy, Luke, kaito-kun, gumisio (tak, nawet on xD) i wszyscy inni, o których w tej chwili nie pamiętam, a którzy kiedykolwiek podzielili się ze mną jakimkolwiek plikiem z tej serii - wszystko się przydało ^^



« poprzednia stronanastępna strona »
« poprzednia stronanastępna strona »
  • Pobierz folder
  • Aby móc przechomikować folder musisz być zalogowanyZachomikuj folder
  • dokumenty
    0
  • obrazy
    0
  • pliki wideo
    81
  • pliki muzyczne
    0

81 plików
15,22 GB




P.Kuba-47

P.Kuba-47 napisano 14.02.2017 18:44

zgłoś do usunięcia

Musisz się zalogować by móc dodawać nowe wiadomości do tego Chomika.

Zaprzyjaźnione i polecane chomiki (1)Zaprzyjaźnione i polecane chomiki (1)
Zgłoś jeśli naruszono regulamin
W ramach Chomikuj.pl stosujemy pliki cookies by umożliwić Ci wygodne korzystanie z serwisu. Jeśli nie zmienisz ustawień dotyczących cookies w Twojej przeglądarce, będą one umieszczane na Twoim komputerze. W każdej chwili możesz zmienić swoje ustawienia. Dowiedz się więcej w naszej Polityce Prywatności