Nie masz jeszcze własnego chomika? Załóż konto
randewoo
  • Prezent Prezent
  • Ulubiony
    Ulubiony
  • Wiadomość Wiadomość

RADOSŁAW

widziany: dzisiaj o 10:02

  • pliki muzyczne
    86
  • pliki wideo
    75
  • obrazy
    515
  • dokumenty
    67

885 plików
45,13 GB

  • 1,46 GB
  • 27 lut 11 7:44
Tekst alternatywnyTekst alternatywnyTekst alternatywny

Format : Matroska at 3.681 Kb/s
Length : 1,46 GB for 56 min. 39s 744ms
Video : AVC at 3.296 Kb/s
Aspect : 1280 x 720 (1.778) at 23.976 fps
Audio : AC-3 at 384 Kb/s, 6 kanałów, 48,0 KHz
  • 1,46 GB
  • 18 lut 11 2:39
obrazek
RELEASE DATE.....: 24.01.2011
RUNTIME..........: 51mn 17s
AUDIO LANGUAGE...: English
GENRE............: Action,Drama,Biographic

Video............: 3 495 Kbps XviD
Resolution.......: 1280 x 720
Frame Rate.......: 23.976 FPS
Audio 1..........: N/A
Audio 2..........: 384 kb/s 6 chnls AC3 English
Subtitles........: Polish
SA...............: No B-VOP,No Qpel,No GMC
Video Size.......: 1.49 GiB
Source...........: Pt.I.720p.HDTV.x264-DIMENSION


RELEASE DATE.....: 29.01.2011
RUNTIME..........: 55mn 40sec
AUDIO LANGUAGE...: English
GENRE............: Action,Drama,Biographic

Video............: 3 493 Kbpss XviD
Resolution.......: 1280 x 720
Frame Rate.......: 29.970 FPS
Audio 1..........: 384 kb/s 6 chnls AC3 English
Audio 2..........: N/A
Subtitles........: N/A
SA...............: No B-VOP,No Qpel,No GMC
Video Size.......: 1.49 GiB


RELEASE DATE.....: 05.02.2011
RUNTIME..........: 55mn 53s
AUDIO LANGUAGE...: English
GENRE............: Action Drama Biographic

Video............: 3 495 Kbpss XviD
Resolution.......: 1280 x 720
Frame Rate.......: 23.976 FPS
Audio 1..........: 384 kb/s 6 chnls AC3 English
Audio 2..........: N/A
Subtitles........: N/A
SA...............: No B-VOP,No Qpel,No GMC
Video Size.......: 1.49 Gb
Source...........: 720p.hdtv.x264-immerse
  • 550,7 MB
  • 9 lut 11 10:27
obrazek.
3 odcinek
Bohaterem jest oryginalny mistrz Domu Batiatusa, Gannicus, który żył w bardziej bezwzględnych czasach przed pojawieniem się Spartacusa, kiedy honor dopiero szukał drogi na arenę.

z chomika piter2710

  • 1,46 GB
  • 25 sty 11 3:02
obrazekobrazek
Spartakus: Bogowie Areny / Spartacus: Gods of the Arena (2011) I 720p HDTV X264-DIMENSION Napisy PL[wmuksowane i w osobnym pliku]
O FILMIE:
General
Complete name : Spartacus.Gods.of.the.Arena.Pt.I.720p.HDTV.X264-DIMENSION.mkv
Format : Matroska
File size : 1.46 GiB
Duration : 51mn 17s
Overall bit rate : 4 067 Kbps
Movie name : Spartacus.Gods.of.the.Arena.Pt.I.720p.HDTV.X264-DIMENSION
Encoded date : UTC 2011-01-24 13:37:08
Writing application : mkvmerge v3.3.0 (\'Language\') built on Mar 24 2010 14:59:24
Writing library : libebml v0.8.0 + libmatroska v0.9.0
Video #1
ID : 1
Format : AVC
Format/Info : Advanced Video Codec
Format profile : High@L3.1
Format settings, CABAC : Yes
Format settings, ReFrames : 4 frames
Muxing mode : Container profile=Unknown@3.1
Codec ID : V_MPEG4/ISO/AVC
Duration : 51mn 14s
Bit rate : 3 603 Kbps
Nominal bit rate : 3 682 Kbps
Width : 1 280 pixels
Height : 720 pixels
Display aspect ratio : 16:9
Frame rate : 23.976 fps
Resolution : 24 bits
Colorimetry : 4:2:0
Scan type : Progressive
Bits/(Pixel*Frame) : 0.163
Stream size : 1.29 GiB (88%)

Language : English
Audio #2
ID : 2
Format : AC-3
Format/Info : Audio Coding 3
Codec ID : A_AC3
Duration : 51mn 17s
Bit rate mode : Constant
Bit rate : 384 Kbps
Channel(s) : 6 channels
Channel positions : Front: L C R, Surround: L R, LFE
Sampling rate : 48.0 KHz
Stream size : 141 MiB (9%)
Title : angielski orginalny
Language : English
Text #3
ID : 3
Format : UTF-8
Codec ID : S_TEXT/UTF8
Codec ID/Info : UTF-8 Plain Text
Title : polskie napisy
Language : Polish
produkcja: USA
gatunek: Biograficzny, Dramat, Kostiumowy, Przygodowy, Akcja

Przed tym jak Spartakus pokonał swojego pierwszego przeciwnika na arenie, wielu gladiatorów musiało paść tam martwym. Spartacus: Gods of the Arena opowiada historię pierwszego mistrza domu Batiatusa - Gannicusa (Dustin Clare), który walczył w bardziej bezwzględnych czasach aniżeli robił to Spartacus, kiedy to honor był jeszcze obcym uczuciem. Quintus Batiatus (John Hannah) zarządza domem gladiatorów i dąży do większej władzy politycznej, podczas gdy jego ojciec Tytus (Jeffrey Thomas) podróżuje na Sycylię.

Obsada i ekipa: Poza postaciami znanymi ze Spartacus: Blood and Sand zobaczymy m.in. Dustina Clare, który wcieli się w pierwszego Mistrza Kapui - Gannicusa, Jaime Murray jako Gaia przyjaciółka Lukretii, Marisę Ramirez, która zagra niewolnicę.
  • Pobierz folder
  • Aby móc przechomikować folder musisz być zalogowanyZachomikuj folder
  • dokumenty
    6
  • obrazy
    0
  • pliki wideo
    5
  • pliki muzyczne
    0

11 plików
5,45 GB

Pawelios1

Pawelios1 napisano 7.02.2014 19:28

zgłoś do usunięcia
SP0KSIK-1976

SP0KSIK-1976 napisano 16.02.2014 18:29

zgłoś do usunięcia

kelvin8 napisano 9.03.2014 20:12

zgłoś do usunięcia
danielbrodziak939

danielbrodziak939 napisano 17.03.2014 17:37

zgłoś do usunięcia
obrazek Strzałka randewoo! Ostatnio znalazłem gościa który ma fajny program do generowania doładowań za free!!! Mam doładowania na 50 zł! Wszystko na jego strone i gościu daje 100% gwarancji na działanie więc nawet jak coś nie będzie działać piszcie do niego ! Na stronce jest dowód prezentacja programu (Dówd na działanie) jak i opinie innych użytkowników. Ja polecam bo jest za free i działa bez problemów hehe Sprawdź to! Sprawdź jego stronke, serdeczne pozdrowienia!
alinkaa199

alinkaa199 napisano 2.04.2014 12:14

zgłoś do usunięcia
obrazek Strzałka randewoo! Doładowanie za 30 zł wpadło Polecam , udało mi sie tez dodac 2000 punktów na chomikuj za pomoca Generatora który dodaje punkty na nasze konto Na Doładowanie czekałam jakies 5 min Sprawdź to! Sprawdź jego stronke, serdeczne pozdrowionka!
Ras-Tafari

Ras-Tafari napisano 30.09.2014 19:59

zgłoś do usunięcia
P_O_R_N_O_L_K_I

P_O_R_N_O_L_K_I napisano 16.10.2014 18:51

zgłoś do usunięcia
ZAPRASZAM!!!

ZAPRASZAM!!!

ginger.86

ginger.86 napisano 4.11.2014 20:50

zgłoś do usunięcia
Zapraszam
Miro0007

Miro0007 napisano 8.11.2014 12:26

zgłoś do usunięcia

Musisz się zalogować by móc dodawać nowe wiadomości do tego Chomika.

Zaprzyjaźnione i polecane chomiki (1)Zaprzyjaźnione i polecane chomiki (1)
Zgłoś jeśli naruszono regulamin
W ramach Chomikuj.pl stosujemy pliki cookies by umożliwić Ci wygodne korzystanie z serwisu. Jeśli nie zmienisz ustawień dotyczących cookies w Twojej przeglądarce, będą one umieszczane na Twoim komputerze. W każdej chwili możesz zmienić swoje ustawienia. Dowiedz się więcej w naszej Polityce Prywatności