zapomniałem
Nie masz jeszcze własnego chomika? Załóż konto
Folder z materiałami dla osób pełnoletnich
+18 Ten folder Chomika zawiera materiały, które mogą być oglądane tylko przez osoby pełnoletnie.

Czy chcesz zobaczyć zawartość tego folderu?
Zaloguj się jeśli masz już konto.
XXXstars
  • Prezent Prezent
  • Ulubiony
    Ulubiony
  • Wiadomość Wiadomość

widziany: 22.07.2014 22:09

  • pliki muzyczne
    1
  • pliki wideo
    101669
  • obrazy
    95
  • dokumenty
    2

102711 plików
36972,43 GB

Ukryj opis Rozwiń
FolderyFoldery
XXXstars
►►♥♥♥NEW!!! Moj Up
 
Anal
Pelnometrazowe
Pojedyncze sceny
►►♥♥♥STARS XXX
 
A
 
B
 
C
 
D
 
E
 
F
 
G
 
H
 
I
 
J
 
K
 
L
 
LA Bust
Lacey DuValle
Lacey Endeavors
Lacey Legends
Lacey Love
Lacey Maguire
Lachelle Marie
Laci Laine
Lacie Heart
Lacy Holliday
Lady Snow
Lady Sonia
Lady Spyce
Lake Russell
Laly Vallade
Lan
Lana Blond
Lana Croft
Lana Fever
Lana Ivans
Lana Lopez
Lana Violet
Lani Kaluha
Lanny Barbie
Larin Lane
Larisa Kiskina
Larissa Dee
Larra
Laryne Laroche
Lataya Roxx
Laura Angel
Laura Bailey
Laura Crystal
Laura Lion
Laura Orsolya
Laura Sinclaire
Laureen Van B
Laurella
Lauren Holt
Lauren Phoenix
Lauryn May aka Kissy
Lavish
Lavish Styles
Layla Exx
Layla Rivera
Laylah Diamond
Layna Laurel
Lea Lexis
Lea Magic
Leach Wilde
Leah Jaye
Leah Jayne
Leah Livingston
Leah Wilde
Leanna Heart
Leanna Lovelace
Leanne Crow
Leanne Lovelace
Lecey Duvalle
Lee Adams
Lee Lexxus
Lee Logan
Leena Lovelace
Leenuh Rae
Leggylana
Leigh Darby
Leighlani Red
Leila Swan
Leilani Leeane
Leili Koshi
Lela Star
Lena Cova
Lena Hartley
Lena Lara
Lena Leigh
Lena Nitro
Lena Ramon
Lenka Gaborova
Leona Ricci
Leony Aprill
Lepidoptera aka Abigail
Leslie Foxx
Leslie Taylor
Letha Weapons
Leticia
Letizia Bruni
Lexa
Lexani Banks
Lexi Bardot
Lexi Belle
Lexi Bloom
Lexi Diamond
Lexi Lamour
Lexi Lapetina
Lexi Love
Lexi Lynn
Lexi Stone
Lexi Swallow
Lexi Ward
Lexxi
Lexxxi Lockhart
Lexxy
Leya Falcon
Leyla Black
Lezley Zen
Lia Lor
Lianessa
Lichelle Marie
Lielani
Lil Candy (Mandy Main)
Lil Lexy
Lila
Liliane Tiger
Lilith Lee
Lilly Kingston
Lily Carter
Lily Labeau
Lily Lamour
Lily Lane
Lily Lohan
Lily Love
Lily Lovely
Lily Thai
Lily Valentine
Linda Babe aka Nore Arilena
Linda Gatinha
Lindsay Kay
Lindsay Lohan
Lindsey Lovehands
Lindsey Meadows
Lindy Lane
Linet Slag
Linsey Dawn McKenzie
Lis
Lisa Ann
Lisa Blueberry
Lisa Canon
Lisa Chest
Lisa DeMarco
Lisa Lee
Lisa Lipps
Lisa Rose
Lisa Sienna
Lisa Sparkle
Lisa Sparxxx
Liss White
Little Caprice
Little Hellcat
Little Lupe
Livia Lane
Liz Taylor
Liz Vicious
Liza Bluberry
Liza Del Sierra
Liza Shay aka Lizzie
Lizz Tayler
Lizzy London
Lizzy Styles
Lois Black
Lola
Lola Banks
Lola Cait
Lola Lush
Lolita Matuschek
Lolla
Lolly Hardcore
Lolo Ferrari
London Andrews
London Keyes
London Reagan aka Reagan Wayne aka Tia McKenzie
London Reinas
Loni
Loni Evans
Loona Lux
Lora Craft
Lora Gaudino
Lorelei Lee
Lorena Aquino
Lorena Sanchez
Lorettas Late
Lori Alexia
Lori Anderson
Lorna Morgan
Lorna Preston
Lotta Topp
Lou Charmelle
Lou Ravage
Louisa de Marco
Louise Jenson
Luana Borgia
Luba Love
Luba Shumeyko
Luccia Cardona
Luci Love
Luci Thai
Lucia Tovar
Luciana
Lucie
Lucie Nunvarova
Lucie T
Lucie Theodorova
Lucky Benton
Lucky Starr
Lucy Abernathy
Lucy Belle
Lucy Lee
Lucy Love
Lucy Pinder
Lucy Thai
Lucy Washington
Luna Kitsuen
Lupe Fuentes
Luscious Lopez
Lux May
Lyanna
Lyla Storm
Lylith Lavey
Lynie Fox
M
 
N
 
O
 
P
 
Q
 
Queen Christin
R
 
S
 
T
 
U
 
Uma Stone
V
 
W
 
X
 
Xandra Brill
Xara Diaz
Y
 
Z
►►Filmy XXX Tematycznie
 
►Gry Erotyczne
●●●Wasze uploady
-------Do segregacji
 
ANAL SEX
 
Butt Divers
XXX POLECANE
Interactive sex
 
zachomikowane
Pokazuj foldery i treści
obrazek







Babe Name: Luana Borgia
Aliases: Luana Perdon, Luana Pardon
Date of Birth: September 28, 1967 (46 years old)
Place of Birth: Seveso
Country of Origin: Italy
Career Status: Retired
Eye Color: Brown
Hair Color: Brown
Measurements: Unknown
Fake Boobs: Yes
Piercings: Right nostril; navel
Tattoos: Star above left wrist; Playboy bunny above right groin
« poprzednia stronanastępna strona »
  • 790,6 MB
  • 17 lip 14 2:41
Format : AVI
Format/Info : Audio Video Interleave
File size : 791 MiB
Duration : 1h 2mn
Overall bit rate : 1 758 Kbps
Writing application : VirtualDubMod 1.5.10.1 (build 2439/release)
Writing library : Boilsoft AVI tool build 1/release

Video
ID : 0
Format : MPEG-4 Visual
Format settings, BVOP : 1
Format settings, QPel : No
Format settings, GMC : 2 warppoints
Format settings, Matrix : Default (H.263)
Muxing mode : Packed bitstream
Codec ID : DX50
Codec ID/Hint : DivX 5
Duration : 1h 2mn
Bit rate : 1 626 Kbps
Width : 640 pixels
Height : 480 pixels
Display aspect ratio : 4:3
Frame rate : 25.000 fps
Color space : YUV
Chroma subsampling : 4:2:0
Bit depth : 8 bits
Scan type : Progressive
Compression mode : Lossy
Bits/(Pixel*Frame) : 0.212
Stream size : 731 MiB (92%)
Writing library : DivX 5.2.1 (WaffleDay) (UTC 2004-09-08)

Audio
ID : 1
Format : MPEG Audio
Format version : Version 1
Format profile : Layer 3
Mode : Dual mono
Codec ID : 55
Codec ID/Hint : MP3
Duration : 1h 2mn
Bit rate mode : Variable
Bit rate : 120 Kbps
Channel(s) : 2 channels
Sampling rate : 48.0 KHz
Compression mode : Lossy
Stream size : 54.0 MiB (7%)
Alignment : Aligned on interleaves
Interleave, duration : 24 ms (0.60 video frame)
Interleave, preload duration : 504 ms

z chomika edifido

  • 748,0 MB
  • 17 lip 14 2:39
Format : AVI
Format/Info : Audio Video Interleave
File size : 748 MiB
Duration : 1h 2mn
Overall bit rate : 1 665 Kbps
Writing application : VirtualDubMod 1.5.10.1 (build 2439/release)
Writing library : Boilsoft AVI tool build 1/release

Video
ID : 0
Format : MPEG-4 Visual
Format settings, BVOP : 1
Format settings, QPel : No
Format settings, GMC : 2 warppoints
Format settings, Matrix : Default (H.263)
Muxing mode : Packed bitstream
Codec ID : DX50
Codec ID/Hint : DivX 5
Duration : 1h 2mn
Bit rate : 1 532 Kbps
Width : 640 pixels
Height : 480 pixels
Display aspect ratio : 4:3
Frame rate : 25.000 fps
Color space : YUV
Chroma subsampling : 4:2:0
Bit depth : 8 bits
Scan type : Progressive
Compression mode : Lossy
Bits/(Pixel*Frame) : 0.200
Stream size : 688 MiB (92%)
Writing library : DivX 5.2.1 (WaffleDay) (UTC 2004-09-08)

Audio
ID : 1
Format : MPEG Audio
Format version : Version 1
Format profile : Layer 3
Mode : Dual mono
Codec ID : 55
Codec ID/Hint : MP3
Duration : 1h 2mn
Bit rate mode : Variable
Bit rate : 120 Kbps
Nominal bit rate : 128 Kbps
Channel(s) : 2 channels
Sampling rate : 48.0 KHz
Compression mode : Lossy
Stream size : 53.9 MiB (7%)
Alignment : Aligned on interleaves
Interleave, duration : 24 ms (0.60 video frame)
Interleave, preload duration : 571 ms
Writing library : LAME3.96r
Encoding settings : -m d -V 4 -q 3 -lowpass 17.5 --abr 128

z chomika edifido

  • 231,9 MB
  • 17 lip 14 2:20

z chomika gregor1d

  • 97,6 MB
  • 19 sty 13 13:20

z chomika bumeta

  • 0,86 GB
  • 19 sty 13 13:19

z chomika bolek36

  • 713,5 MB
  • 19 sty 13 13:19

z chomika rafi6395787

  • 95,4 MB
  • 19 sty 13 13:18

zachomikowany

  • 71,7 MB
  • 19 sty 13 13:18

zachomikowany

« poprzednia stronanastępna strona »
  • Pobierz folder
  • Aby móc przechomikować folder musisz być zalogowanyZachomikuj folder
  • dokumenty
    0
  • obrazy
    0
  • pliki wideo
    44
  • pliki muzyczne
    0

45 plików
22,29 GB

DragonRed

DragonRed napisano 21.07.2014 18:15

zgłoś do usunięcia
X-EROTYKA

X-EROTYKA napisano 21.07.2014 18:15

zgłoś do usunięcia
mati012311

mati012311 napisano 21.07.2014 19:36

zgłoś do usunięcia
SekretarzPartii

SekretarzPartii napisano 22.07.2014 17:36

zgłoś do usunięcia
Evelyn.2014

Evelyn.2014 napisano 22.07.2014 18:04

zgłoś do usunięcia
mariusz4699

mariusz4699 napisano 22.07.2014 21:16

zgłoś do usunięcia

Musisz się zalogować by móc dodawać nowe wiadomości do tego Chomika.

Zgłoś jeśli naruszono regulamin
W ramach Chomikuj.pl stosujemy pliki cookies by umożliwić Ci wygodne korzystanie z serwisu. Jeśli nie zmienisz ustawień dotyczących cookies w Twojej przeglądarce, będą one umieszczane na Twoim komputerze. W każdej chwili możesz zmienić swoje ustawienia. Dowiedz się więcej w naszej Polityce Prywatności